Легенды завтрашнего дня / DC's Legends of Tomorrow [сезон 1-4] (2016-2019) скачать торрент

Reply to topic

DL-List and Torrent activity [Update пиров]
Size:  12.56 GB   |    Registered:  9 months 8 days   |    Completed:  0 times
Seeders:  2  [  0 KB/s  ]   Show peers in full details
 
 
 
 
Author Message

Admin ®

Longevity: 4 years 1 month

Posts: 8049

Location: trackeroc.ru trackeroc.org trackeroc.info trackeroc.tk


Post 18-Aug-2019 13:17

[Quote]

Информация о фильме
Название: Легенды завтрашнего дня
Оригинальное название: DC's Legends of Tomorrow
Год выхода: 2016
Жанр: фантастика, боевик, драма, приключения
Режиссер: Дермотт Даунс, Глен Винтер, Джо Данте
В ролях: Виктор Гарбер, Брэндон Рут, Кейти Лотц, Артур Дарвилл, Сиара Рене, Франц Драмех, Доминик Пёрселл, Вентворт Миллер, Каспер Крамп, Фальк Хеншел, Питер Фрэнсис Джеймс, Стефани Корнелиуссен, Николай Вич, Стивен Амелл, Кэти Кэссиди, Грант Гастин
О фильме:
Увидев будущее, которого обязательно нужно избежать, Рип Хантер, путешественник во времени, собирает команду из героев и злодеев, чтобы противостоять смертельной угрозе. На кону стоит не только наша планета, но и все время в целом. Сможет ли эта команда победить бессмертное зло, абсолютно непохожее на то, что они видели раньше?

Страна: США
Студия: Berlanti Productions, Bonanza Productions, DC Entertainment, Warner Bros. Television
Продолжительность: 67 x ~ 00:43:00
Перевод: Профессиональный (многоголосый, закадровый) [LostFilm]
Файл
Формат: MP4
Качество: WEB-DLRip | КПК
Видео: MPEG-4 AVC (x264), 640x360, ~500 kbps, 23.976 fps
Аудио: AAC LC, 48.0 KHz, 2 ch, 128 Kbps
Субтитры: Нет
Семпл

Скриншоты

MI

Complete name : E:KinoLegendy.Zavtrashnego.Dnja.AVC.KPK.GFLegendy.Zavtrashnego.Dnja.S02.2016-2017.AVC.WEB-DLRip.KPK.LF.GFLegendy.Zavtrashnego.Dnja.s02e07.2016.AVC.WEB-DLRip.KPK.LF.GF.mp4
Format : MPEG-4
Codec ID : M4V (isom/iso2/avc1)
File size : 192 MiB
Duration : 42mn 19s
Overall bit rate mode : Variable
Overall bit rate : 634 Kbps
Writing application : Lavf53.19.0
Video
ID : 1
Format : AVC
Format/Info : Advanced Video Codec
Format profile : [email protected]
Format settings, CABAC : Yes
Format settings, ReFrames : 8 frames
Codec ID : avc1
Codec ID/Info : Advanced Video Coding
Duration : 42mn 19s
Source duration : 13mn 41s
Bit rate : 500 Kbps
Width : 640 pixels
Height : 360 pixels
Display aspect ratio : 16:9
Frame rate mode : Constant
Frame rate : 23.976 fps
Color space : YUV
Chroma subsampling : 4:2:0
Bit depth : 8 bits
Scan type : Progressive
Bits/(Pixel*Frame) : 0.091
Stream size : 151 MiB (79%)
Source stream size : 151 MiB (79%)
Writing library : x264 core 146 r2538 121396c
Encoding settings : cabac=1 / ref=8 / deblock=1:-2:-2 / analyse=0x3:0x133 / me=umh / subme=10 / psy=1 / psy_rd=1.00:0.00 / mixed_ref=1 / me_range=24 / chroma_me=1 / trellis=2 / 8x8dct=1 / cqm=0 / deadzone=21,11 / fast_pskip=1 / chroma_qp_offset=-2 / threads=12 / lookahead_threads=2 / sliced_threads=0 / nr=0 / decimate=0 / interlaced=0 / bluray_compat=0 / constrained_intra=0 / bframes=8 / b_pyramid=2 / b_adapt=2 / b_bias=0 / direct=3 / weightb=1 / open_gop=0 / weightp=2 / keyint=240 / keyint_min=121 / scenecut=40 / intra_refresh=0 / rc_lookahead=40 / rc=2pass / mbtree=1 / bitrate=500 / ratetol=1.0 / qcomp=0.60 / qpmin=0 / qpmax=69 / qpstep=4 / cplxblur=20.0 / qblur=0.5 / ip_ratio=1.40 / aq=1:1.00
Menus : 3
mdhd_Duration : 2539750
Audio
ID : 2
Format : AAC
Format/Info : Advanced Audio Codec
Format profile : LC
Codec ID : 40
Duration : 42mn 19s
Bit rate mode : Variable
Bit rate : 128 Kbps
Channel(s) : 2 channels
Channel positions : Front: L R
Sampling rate : 48.0 KHz
Frame rate : 46.875 fps (1024 spf)
Compression mode : Lossy
Stream size : 38.8 MiB (20%)
Default : Yes
Alternate group : 1
Menus : 3


Смотреть онлайн


[trackeroc.info].17960.torrent 
Torrent: Registered   [ 2019-08-18 13:17 ]

Скачать торрент

43 KB

Status: checked
Completed: 20 times
Size: 12.56 GB
 

Similar torrent
Forum Topic Author Size
Зарубежные сериалы Легенды завтрашнего дня / DC's Legends of Tomorrow [сезон 5 серии 1-12 из 15] Admin 5.72 GB
Квесты , я ищу , Поиск предметов Hidden Object Family Mysteries 2: Echoes of Tomorrow / Семейные тайны 2: Эхо завтрашнего дня (2020) (RUS) Admin 842 MB
Логические игры, пазлы ,три в ряд Avalon Legends Solitaire 1-3 / Легенды Авалона: Пасьянс 1-2 [RUS/ENG] (2018) Admin 343 MB
Квесты , я ищу , Поиск предметов Hidden Object Living Legends 8: The Crystal Tear / Живые легенды 8. Хрустальная слезинка [RUS / ENG] (2019) Admin 1.18 GB
Квесты , я ищу , Поиск предметов Hidden Object Spirit Legends 3: Time for Change / Легенды Духов 3: Время перемен [RUS / ENG] (2019) Admin 1.21 GB
[Profile] [PM]
Display posts from previous:    
Reply to topic

The time now is: Today 17:29

All times are GMT + 4 Hours



You cannot post new topics in this forum
You cannot reply to topics in this forum
You cannot edit your posts in this forum
You cannot delete your posts in this forum
You cannot vote in polls in this forum
You cannot attach files in this forum
You can download files in this forum