Орден (2015) HDTVRip (сезон 1, серии 1-4 из 4) скачать торрент

Reply to topic

DL-List and Torrent activity [Update пиров]
Size:  2.15 GB   |    Registered:  3 years 6 months   |    Completed:  1 time
Seeders:  10  [  0 KB/s  ]   Leechers:  6  [  0 KB/s  ]   Show peers in full details
 
 
 
 
Author Message

BiOS ®

Longevity: 5 years 7 months

Posts: 1195

Location: Raccoon City


Post 10-May-2016 07:33

[Quote]

Орден - Телекомпания: НТВ HD
Жанр: Военный, Драма
Режиссер: Алексей Быстрицкий
Актеры: Роман Полянский, Валерий Ошомков, Александр Алёшкин, Юлия Кокрятская, Марина Митрофанова, Игорь Филиппов, Фёдор Сухов, Надежда Азоркина, Денис Попов, Сергей Лаврентьев, Сергей Штатнов, Евгений Шибалко, Никита Григорьев, Ген Сето
Описание:
1945 год. Вся страна празднует Великую Победу. Миллионы солдат-победителей возвращаются домой. Но на Востоке часть территории Китая, Маньчжурия, по-прежнему оккупирована фашистской Японией. Верная союзническому долгу Красная Армия вступает в бой с сильным и жестоким врагом. 18 августа отряд героев-штурмовиков под командованием капитана Ивана Забелина получает разрешение на осуществление дерзкой, не имеющей аналогов в мировой истории, войсковой операции. Бойцам предстоит тяжелое сражение в самом сердце врага…
Возраст: 12+ (зрителям, достигшим 12 лет)
Дата премьеры в РФ: 9 мая 2016

Продолжительность: ~ 00:42:00 серия
Качество видео: HDTVRip
Перевод: Не требуется
Субтитры: Отсутствуют
Видео: MPEG4, XviD, 720x400 (16:9), 25.000 fps, 1 573 Kbps (0.218 bit/pixel)
Аудио: AC-3, 48.0 KHz, 2 ch, 192 Kbps, CBR

Mediainfo:

Код:
Формат                                   : AVI
Формат/Информация                        : Audio Video Interleave
Размер файла                             : 550 Мбайт
Продолжительность                        : 43 м.
Общий поток                              : 1775 Кбит/сек
Программа кодирования                    : VirtualDubMod 1.5.10.3 | www.virtualdub-fr.org || (build 2550/release)
Библиотека кодирования                   : VirtualDubMod build 2550/release
Видео
Идентификатор                            : 0
Формат                                   : MPEG-4 Visual
Профиль формата                          : Advanced [email protected]
Параметр BVOP формата                    : 1
Параметр QPel формата                    : Нет
Параметр GMC формата                     : Без точки перехода
Параметр матрицы формата                 : Выборочная
Идентификатор кодека                     : XVID
Идентификатор кодека/Подсказка           : XviD
Продолжительность                        : 43 м.
Битрейт                                  : 1573 Кбит/сек
Ширина                                   : 720 пикселей
Высота                                   : 400 пикселей
Соотношение сторон                       : 16:9
Частота кадров                           : 25,000 кадров/сек
Цветовое пространство                    : YUV
Субдискретизация насыщенности            : 4:2:0
Битовая глубина                          : 8 бит
Тип развёртки                            : Прогрессивная
Метод сжатия                             : С потерями
Бит/(Пиксели*Кадры)                      : 0.218
Размер потока                            : 487 Мбайт (89%)
Библиотека кодирования                   : XviD 73
Аудио
Идентификатор                            : 1
Формат                                   : AC-3
Формат/Информация                        : Audio Coding 3
Расширение режима                        : CM (complete main)
Параметр Endianness формата              : Big
Идентификатор кодека                     : 2000
Продолжительность                        : 43 м.
Вид битрейта                             : Постоянный
Битрейт                                  : 192 Кбит/сек
Каналы                                   : 2 канала
Расположение каналов                     : Front: L R
Частота                                  : 48,0 КГц
Битовая глубина                          : 16 бит
Метод сжатия                             : С потерями
Размер потока                            : 59,5 Мбайт (11%)
Выравнивание                             : Разделение по промежуткам
Продолжительность промежутка             : 40  мс. (1,00 видеокадр)
Время предзагрузки промежутка            : 500  мс.
-Скриншоты:


Смотреть онлайн


[trackeroc.ru].12604.torrent 
Torrent: Registered   [ 2016-05-10 07:33 ]

Скачать торрент

12 KB

Status: checked
Completed: 91 times
Size: 2.15 GB
 

Admin (17-май-16)
Similar torrent
Forum Topic Author Size
Strategy Стратегии (GOG) Planetbase v1.3.6 (2015) [ENG+RUS] Admin 427 MB
Песочницы , Sandbox Savage Lands v0.9.1.91 [Early Access] (2015) [ENG] Repack DD Falconrr 1.32 GB
Песочницы , Sandbox (GOG) Prison Architect [the Sneezer 1.01] (2015) (RUS|ENG) ddayver 1.51 GB
Инди Sandbox (GOG) (Linux+Mac) Prison Architect [the Sneezer 1.01] (2015) [Ru/Multi] ddayver 1.3 GB
Инди Sandbox (GOG) (Linux+Mac) Kerbal Space Program / KSP v1.8.1.02694 + 2 DLC (2015) [ENG+RUS] [x64] ddayver 7.77 GB

_________________
[Profile] [PM]
Display posts from previous:    
Reply to topic

The time now is: Today 04:20

All times are GMT + 4 Hours



You cannot post new topics in this forum
You cannot reply to topics in this forum
You cannot edit your posts in this forum
You cannot delete your posts in this forum
You cannot vote in polls in this forum
You cannot attach files in this forum
You can download files in this forum